Whose Line is it Anyway US S12E06 720p HDTV x264-BAJSKORV[rartv]

seeders: 44
leechers: 5
updated:
Added by z0n3212.59M in TV
Torrent verified. Downloaded 1,762 times.

DownloadFast Safe Anonymous
movies, software, shows...
Available in versions: 1080p720p480pHDTV
Whose Line is it Anyway US S12E06 720p HDTV x264-BAJSKORV[rartv] (Size: 716.67 MB)
  rarbg.com.txt 34 bytes
  whose.line.is.it.anyway.us.s12e06.720p.hdtv.x264-bajskorv.mkv 716.67 MB
  whose.line.is.it.anyway.us.s12e06.720p.hdtv.x264-bajskorv.nfo 93 bytes

Description


http://rarbg.to
Whose.Line.is.it.Anyway.US.S12E06.720p.HDTV.x264-BAJSKORV[rartv]

image
Screens :

image
Mediainfo :

Video
ID : 1
Format : AVC
Format/Info : Advanced Video Codec
Format profile : [email protected]
Format settings, CABAC : Yes
Format settings, ReFrames : 5 frames
Codec ID : V_MPEG4/ISO/AVC
Duration : 20mn 49s
Bit rate : 4 422 Kbps
Width : 1 280 pixels
Height : 720 pixels
Display aspect ratio : 16:9
Frame rate mode : Constant
Frame rate : 59.940 (60000/1001) fps
Color space : YUV
Chroma subsampling : 4:2:0
Bit depth : 8 bits
Scan type : Progressive
Bits/(Pixel*Frame) : 0.080
Stream size : 659 MiB (92%)
Writing library : x264 core 148 r2705 3f5ed56
Encoding settings : cabac=1 / ref=5 / deblock=1:0:0 / analyse=0x3:0x113 / me=umh / subme=8 / psy=1 / psy_rd=1.00:0.00 / mixed_ref=1 / me_range=16 / chroma_me=1 / trellis=1 / 8x8dct=1 / cqm=0 / deadzone=21,11 / fast_pskip=1 / chroma_qp_offset=-2 / threads=18 / lookahead_threads=4 / sliced_threads=0 / nr=0 / decimate=1 / interlaced=0 / bluray_compat=0 / constrained_intra=0 / bframes=5 / b_pyramid=2 / b_adapt=2 / b_bias=0 / direct=3 / weightb=1 / open_gop=0 / weightp=2 / keyint=250 / keyint_min=25 / scenecut=40 / intra_refresh=0 / rc_lookahead=50 / rc=crf / mbtree=1 / crf=20.0 / qcomp=0.60 / qpmin=0 / qpmax=69 / qpstep=4 / ip_ratio=1.40 / aq=1:1.00
Default : No
Forced : No

Audio
ID : 2
Format : AC-3
Format/Info : Audio Coding 3
Mode extension : CM (complete main)
Format settings, Endianness : Big
Codec ID : A_AC3
Duration : 20mn 49s
Bit rate mode : Constant
Bit rate : 384 Kbps
Channel(s) : 2 channels
Channel positions : Front: L R
Sampling rate : 48.0 KHz
Frame rate : 31.250 fps (1536 spf)
Compression mode : Lossy
Delay relative to video : -33ms
Stream size : 57.2 MiB (8%)
Default : Yes
Forced : No

Related Torrents

torrent name size files age seed leech

Sharing Widget


Download torrent
716.67 MB
seeders:49
leechers:4
Whose Line is it Anyway US S12E06 720p HDTV x264-BAJSKORV[rartv]



To share this torrent use the code below and insert it into comments, status messages, forum posts or your signature.

Torrent: Whose Line is it Anyway US S...0p HDTV x264-BAJSKORV[rartv]

Trackers

tracker name
udp://tracker.openbittorrent.com:80/announce
udp://tracker.publicbt.com:80/announce
udp://tracker.coppersurfer.tk:6969/announce
udp://9.rarbg.me:2710/announce
udp://p4p.arenabg.com:1337/announce
http://tracker.trackerfix.com/announce
udp://9.rarbg.to:2710/announce
udp://tracker.opentrackr.org:1337/announce
µTorrent compatible trackers list

Locations

name
KickassTorrents
Torrent hash: 7102882BE05300B2376229D406DE66CF6BDB7C90

All Comments

audio
10/10
video
10/10
please, leave only comments related to that torrent
Sign In

audio: 10video: 10
Top quality. Cheers.
audio: 10video: 10
Thanks, Great Upload!
audio: 10video: 10
hey zone could you put out a smaller repack.. tyty i live in the stone age over here... also ty for the upload...

User Opinions

AllOuttaGum35.77K, Sunny-Z10.1K, Gooner796737, queeroid6335, prcomicfan5454, MotocycleLuv4229, jkmoogle3636, the.ashraf2441, rurocking2384, leetsfonameht1238 ... And 17 more
Report a bug Open chat
SitemapTo Love-Ru | Dragon Ball – Bảy Viên Ngọc Rồng chap 484 | or Learn More